Loading...
Error

Война под землей / The War Below (Дж.П. Уоттс) [2020 г., драма, военный, история, BDRip 1080p] Dub (iTunes) + Original

Статистика раздачи
Размер:  9.24 GB   |    Зарегистрирован:  10 месяцев   |    Скачан:  8 раз

Полного источника не было: 6 месяцев

Сидов:  0  |  0 KB/s  ]   Личеров:  0  |  0 KB/s  ]

* - сиды/пиры с внешних источников

   
 
Автор Сообщение

makkol Пол:Муж

07-Ноя-2021 10:45

Война под землей / The War Below
«Земля дарит надежду»


Год выпуска: 2020
Жанр: драма, военный, история
Производство: США [Vital Pictures]
Режиссер: Дж.П. Уоттс
В ролях: Сэм Хэзелдайн, Том Гудман-Хилл, Эллиотт Джеймс Лангридж, Крис Хитченс, Сэм Клемметт, Джозеф Стейн, Сонни Эшборн Серкис, Филип Коррейя, Аарон Хартли, Сэмю Джейэлмс
Сюжет фильма:
Действие разворачивается в годы Первой мировой. Команде, в которую вошли несколько британских шахтеров, предстоит проложить под землей туннель, в который будут заложены бомбы, прямо под местом расположения немецких подразделений.

  • Мировая премьера: 21 апреля 2021


Качество видео: BDRip 1080p

Продолжительность: 01:36:40
Формат: MKV
Видео: MPEG-4 AVC, 1920x808 (2.40:1), 24.000 fps, 13.0 Mbps
Аудио #1: русский, дублированный (iTunes), AC3 5.1, 48 kHz, 384 kbps
Аудио #2: английский, оригинал, AC3 5.1, 48 kHz, 640 kbps

Код:

General
Unique ID                      : 232806867482407970596954253476925311309 (0xAF24F8C394D9C3D5123BC34503E0894D)
Complete name                  : The War Below (2020) 1080p BDRip.mkv
Format                         : Matroska
Format version                 : Version 4
File size                      : 9.24 GiB
Duration                       : 1 h 36 min
Overall bit rate               : 13.7 Mb/s
Movie name                     : The War Below
Encoded date                   : UTC 2021-11-06 19:29:07
Writing application            : mkvmerge v62.0.0 ('Apollo') 64-bit
Writing library                : libebml v1.4.2 + libmatroska v1.6.4

Video
ID                             : 1
Format                         : AVC
Format/Info                    : Advanced Video Codec
Format profile                 : [email protected]
Format settings                : CABAC / 4 Ref Frames
Format settings, CABAC         : Yes
Format settings, Reference fra : 4 frames
Codec ID                       : V_MPEG4/ISO/AVC
Duration                       : 1 h 36 min
Bit rate                       : 13.0 Mb/s
Width                          : 1 920 pixels
Height                         : 808 pixels
Display aspect ratio           : 2.40:1
Frame rate mode                : Constant
Frame rate                     : 24.000 FPS
Color space                    : YUV
Chroma subsampling             : 4:2:0
Bit depth                      : 8 bits
Scan type                      : Progressive
Bits/(Pixel*Frame)             : 0.349
Stream size                    : 8.55 GiB (92%)
Title                          : The War Below
Writing library                : x264 core 142 r2479 dd79a61
Encoding settings              : cabac=1 / ref=1 / deblock=1:0:0 / analyse=0x3:0x3 / me=dia / subme=1 / psy=1 / psy_rd=1.00:0.00 / mixed_ref=0 / me_range=16 / chroma_me=1 / trellis=0 / 8x8dct=1 / cqm=0 / deadzone=21,11 / fast_pskip=1 / chroma_qp_offset=0 / threads=24 / lookahead_threads=4 / sliced_threads=0 / nr=0 / decimate=1 / interlaced=0 / bluray_compat=0 / constrained_intra=0 / bframes=3 / b_pyramid=2 / b_adapt=1 / b_bias=0 / direct=1 / weightb=1 / open_gop=0 / weightp=1 / keyint=240 / keyint_min=24 / scenecut=40 / intra_refresh=0 / rc_lookahead=0 / rc=abr / mbtree=0 / bitrate=13000 / ratetol=1.0 / qcomp=0.60 / qpmin=0 / qpmax=69 / qpstep=4 / vbv_maxrate=62500 / vbv_bufsize=78125 / nal_hrd=none / filler=0 / ip_ratio=1.40 / pb_ratio=1.30 / aq=1:1.00
Language                       : English
Default                        : Yes
Forced                         : No
Color range                    : Limited
Color primaries                : BT.709
Transfer characteristics       : BT.709
Matrix coefficients            : BT.709

Audio #1
ID                             : 2
Format                         : AC-3
Format/Info                    : Audio Coding 3
Commercial name                : Dolby Digital
Codec ID                       : A_AC3
Duration                       : 1 h 36 min
Bit rate mode                  : Constant
Bit rate                       : 384 kb/s
Channel(s)                     : 6 channels
Channel layout                 : L R C LFE Ls Rs
Sampling rate                  : 48.0 kHz
Frame rate                     : 31.250 FPS (1536 SPF)
Compression mode               : Lossy
Delay relative to video        : -83 ms
Stream size                    : 265 MiB (3%)
Title                          : Dub iTunes
Language                       : Russian
Service kind                   : Complete Main
Default                        : Yes
Forced                         : No

Audio #2
ID                             : 3
Format                         : AC-3
Format/Info                    : Audio Coding 3
Commercial name                : Dolby Digital
Codec ID                       : A_AC3
Duration                       : 1 h 36 min
Bit rate mode                  : Constant
Bit rate                       : 640 kb/s
Channel(s)                     : 6 channels
Channel layout                 : L R C LFE Ls Rs
Sampling rate                  : 48.0 kHz
Frame rate                     : 31.250 FPS (1536 SPF)
Compression mode               : Lossy
Delay relative to video        : -5 ms
Stream size                    : 443 MiB (5%)
Title                          : Original
Language                       : English
Service kind                   : Complete Main
Default                        : No
Forced                         : No

Menu
00:00:00.000                   : :Chapter 2
00:07:54.875                   : :Chapter 3
00:17:46.875                   : :Chapter 4
00:29:58.625                   : :Chapter 5
00:35:25.291                   : :Chapter 6
00:42:23.958                   : :Chapter 7
00:49:57.125                   : :Chapter 8
00:57:31.250                   : :Chapter 9
01:05:15.083                   : :Chapter 10
01:12:26.083                   : :Chapter 11
01:23:27.958                   : :Chapter 12
01:33:50.250                   : :Chapter 13

Этот торрент недоступен для скачивания без регистрации, однако доступен по публичной magnet-ссылке (источники с публичных трекеров). Перед использованием ссылки прочтите, пожалуйста Пользовательское соглашение, а также как можно дольше оставайтесь на раздаче! Для того, чтобы скачать сам торрент-файл (который видит больше источников), а также для того, чтобы поблагодарить релизера, вам необходимо зарегистрироваться. Если регистрироваться лень - вы можете также попробовать скачать релиз по нашим партнерским ссылкам ниже. Кроме того, зарегистрированным пользователям не показывается всплывающая реклама при скачивании.

[underver.se].t226605.torrent
Трекер: Зарегистрирован   [ 07.11.2021 10:45 ]  
Статус: проверено (by makkol at 07.11.2021 10:46)
Поблагодарили: пока никто не поблагодарил...
Тип торрента: публичный - доступные источники с открытых трекеров: 
Размер: 9.24 GB (занимает 2.11 DVDR, для записи нужно 3 болванки DVDR/RW)
 
 

Яндекс.Метрика powered by Sphinx


В Н И М А Н И Е
Сайт не распространяет и не хранит электронные версии произведений, а лишь бесплатно и без коммерческой выгоды (не требуя взамен платы,
SMS и т.д.) предоставляет доступ к создаваемому пользователями каталогу ссылок на торрент-файлы, которые содержат только списки хеш-сумм.
Убедительная просьба с жалобами обращаться напрямую к пользователю, разместившему торрент файл.

Вверх