Loading...
Error

Война под землей / The War Below (Дж.П. Уоттс) [2020, Драма, военный, история, BDRip 720p] Dub (iTunes) + Original (Eng) + Sub (Rus, Fre, Eng)

Статистика раздачи
Размер:  3.15 GB   |    Зарегистрирован:  9 месяцев   |    Скачан:  10 раз

Полного источника не было: 1 час 37 минут

Сидов:  0  |  0 KB/s  ]   Личеров:  0  |  0 KB/s  ]

* - сиды/пиры с внешних источников

   
 
Автор Сообщение

tiptop Пол:Муж

30-Ноя-2021 14:41

Война под землей / The War Below


Информация о фильме
Название: Война под землей
Оригинальное название: The War Below
Год выхода: 2020
Жанр: Драма, военный, история
Режиссер: Дж.П. Уоттс

В ролях: Сэм Хэзелдайн, Том Гудман-Хилл, Эллиотт Джеймс Лангридж, Крис Хитченс, Сэм Клемметт, Джозеф Стейн, Сонни Эшборн Серкис, Филип Коррейя, Аарон Хартли, Сэмю Джейэлмс

Слоган: «Земля дарит надежду»

О фильме: Первая мировая война. Группа британских шахтеров должна проложить под землей туннель, в который будут заложены бомбы, прямо под местом расположения немецких подразделений.



Выпущено: США / Vital Pictures
Продолжительность: 01:36:40
Перевод: Дублированный [iTunes]

Файл
Качество: BDRip 720p
Формат: MKV
Видео: MPEG-4 AVC/H.264, 3626 Кбит/сек, 1280x534
Аудио #1: Русский: AC3, 6 ch, 384 Кбит/сек
Аудио #2: Английский: E-AC3, 6 ch, 640 Кбит/сек
Субтитры: русские, французские, английские [вшитые отключаемые]
Дополнительно: Сохранены оригинальные главы (чаптеры)
Общее
Уникальный идентификатор : 205769774281012264970783902432609035202 (0x9ACDD12680C9F713E7C6FCF77C21E3C2)
Полное имя : F:\1.ФИЛЬМЫ\01. ФИЛЬМЫ\Война под землей The War Below (2020)\Voyna pod zemley The War Below (2020) BDRip 720p iTunes.mkv
Формат : Matroska
Версия формата : Version 4
Размер файла : 3,15 Гбайт
Продолжительность : 1 ч. 36 м.
Общий поток : 4 663 Кбит/сек
Программа кодирования : Lavf
Библиотека кодирования : Lavf
Авторское право : **#**
ErrorDetectionType : Per level 1
Attachments : poster.png
Язык : und

Видео
Идентификатор : 1
Формат : AVC
Формат/Информация : Advanced Video Codec
Профиль формата : [email protected]
Настройки формата : 12 Ref Frames
Параметр CABAC формата : Нет
Параметр RefFrames формата : 12 кадров
Идентификатор кодека : V_MPEG4/ISO/AVC
Продолжительность : 1 ч. 36 м.
Битрейт : 3 626 Кбит/сек
Ширина : 1 280 пикселей
Высота : 534 пикселя
Соотношение сторон : 2,40:1
Режим частоты кадров : Постоянный
Частота кадров : 24,000 кадра/сек
Цветовое пространство : YUV
Субдискретизация насыщенности : 4:2:0
Битовая глубина : 8 бит
Тип развёртки : Прогрессивная
Бит/(Пиксели*Кадры) : 0.221
Размер потока : 2,39 Гбайт (76%)
Заголовок : USA (Vital Pictures)
Библиотека кодирования : x264 core 159 r2991 1771b55
Настройки программы : cabac=0 / ref=12 / deblock=1:-3:-3 / analyse=0x3:0x133 / me=umh / subme=11 / psy=1 / psy_rd=0.40:0.15 / mixed_ref=1 / me_range=32 / chroma_me=1 / trellis=2 / 8x8dct=1 / cqm=0 / deadzone=21,18 / fast_pskip=0 / chroma_qp_offset=-3 / threads=29 / lookahead_threads=4 / sliced_threads=0 / nr=60 / decimate=0 / interlaced=0 / bluray_compat=0 / constrained_intra=0 / bframes=16 / b_pyramid=2 / b_adapt=2 / b_bias=9 / direct=3 / weightb=1 / open_gop=0 / weightp=2 / keyint=240 / keyint_min=24 / scenecut=40 / intra_refresh=0 / rc_lookahead=60 / rc=2pass / mbtree=0 / bitrate=3626 / ratetol=1.0 / qcomp=0.70 / qpmin=3 / qpmax=69 / qpstep=4 / cplxblur=20.0 / qblur=0.5 / vbv_maxrate=5000 / vbv_bufsize=4000 / nal_hrd=none / filler=0 / ip_ratio=1.40 / pb_ratio=1.30 / aq=2:0.60
Язык : English
Default : Да
Forced : Нет
Цветовой диапазон : Limited
Основные цвета : BT.709
Характеристики трансфера : BT.709
Коэффициенты матрицы : BT.709

Аудио #1
Идентификатор : 2
Формат : AC-3
Формат/Информация : Audio Coding 3
Коммерческое название : Dolby Digital
Идентификатор кодека : A_AC3
Продолжительность : 1 ч. 36 м.
Вид битрейта : Постоянный
Битрейт : 384 Кбит/сек
Каналы : 6 каналов
Channel layout : L R C LFE Ls Rs
Частота : 48,0 КГц
Частота кадров : 31,250 кадров/сек (1536 SPF)
Битовая глубина : 32 бит
Метод сжатия : С потерями
Размер потока : 266 Мбайт (8%)
Заголовок : Dub (iTunes)
Язык : Russian
Service kind : Complete Main
Default : Да
Forced : Нет

Аудио #2
Идентификатор : 3
Формат : E-AC-3
Формат/Информация : Enhanced AC-3
Коммерческое название : Dolby Digital Plus
Идентификатор кодека : A_EAC3
Продолжительность : 1 ч. 36 м.
Вид битрейта : Постоянный
Битрейт : 640 Кбит/сек
Каналы : 6 каналов
Channel layout : L R C LFE Ls Rs
Частота : 48,0 КГц
Частота кадров : 31,250 кадров/сек (1536 SPF)
Битовая глубина : 32 бит
Метод сжатия : С потерями
Размер потока : 443 Мбайт (14%)
Заголовок : Original (English)
Язык : English
Service kind : Complete Main
Default : Нет
Forced : Нет

Текст #1
Идентификатор : 4
Формат : UTF-8
Идентификатор кодека : S_TEXT/UTF8
Идентификатор кодека/Информация : UTF-8 Plain Text
Заголовок : forced
Язык : Russian
Default : Да
Forced : Нет

Текст #2
Идентификатор : 5
Формат : PGS
Идентификатор кодека : S_HDMV/PGS
Идентификатор кодека/Информация : Picture based subtitle format used on BDs/HD-DVDs
Язык : French
Default : Нет
Forced : Нет

Текст #3
Идентификатор : 6
Формат : UTF-8
Идентификатор кодека : S_TEXT/UTF8
Идентификатор кодека/Информация : UTF-8 Plain Text
Язык : Spanish
Default : Нет
Forced : Нет

Меню
00:00:00.000 : :Chapter 01
00:00:00.042 : :Chapter 02
00:07:54.750 : :Chapter 03
00:17:46.750 : :Chapter 04
00:29:58.500 : :Chapter 05
00:35:25.167 : :Chapter 06
00:42:23.833 : :Chapter 07
00:49:57.000 : :Chapter 08
00:57:31.125 : :Chapter 09
01:05:15.000 : :Chapter 10
01:12:26.000 : :Chapter 11
01:23:27.833 : :Chapter 12
01:33:50.208 : :Chapter 13

Этот торрент недоступен для скачивания без регистрации, однако доступен по публичной magnet-ссылке (источники с публичных трекеров). Перед использованием ссылки прочтите, пожалуйста Пользовательское соглашение, а также как можно дольше оставайтесь на раздаче! Для того, чтобы скачать сам торрент-файл (который видит больше источников), а также для того, чтобы поблагодарить релизера, вам необходимо зарегистрироваться. Если регистрироваться лень - вы можете также попробовать скачать релиз по нашим партнерским ссылкам ниже. Кроме того, зарегистрированным пользователям не показывается всплывающая реклама при скачивании.

[underver.se].t228093.torrent
Трекер: Зарегистрирован   [ 30.11.2021 14:41 ]  
Статус: проверено (by tiptop at 30.11.2021 14:42)
Поблагодарили: 1 человек
Тип торрента: публичный - доступные источники с открытых трекеров: 
Размер: 3.15 GB (занимает 0.72 DVDR, для записи нужно 1 болванка DVDR/RW)
 
 

Яндекс.Метрика powered by Sphinx


В Н И М А Н И Е
Сайт не распространяет и не хранит электронные версии произведений, а лишь бесплатно и без коммерческой выгоды (не требуя взамен платы,
SMS и т.д.) предоставляет доступ к создаваемому пользователями каталогу ссылок на торрент-файлы, которые содержат только списки хеш-сумм.
Убедительная просьба с жалобами обращаться напрямую к пользователю, разместившему торрент файл.

Вверх