Loading...
Error

(Православные песнопения) Мужская капелла "Благовест" / Придите, поклонимся (2007) [FLAC (Image+.CUE), lossless]

Статистика раздачи
Размер:  166 MB   |    Зарегистрирован:  4 года 11 месяцев   |    Скачан:  3 раза

Полного источника не было: 1 год

Сидов:  0  |  0 KB/s  ]   Личеров:  0  |  0 KB/s  ]

* - сиды/пиры с внешних источников

   
 
Автор Сообщение

ost 

01-Сен-2017 10:41

Мужская капелла "Благовест" / Придите, поклонимся

Жанр: Православные песнопения
Год выпуска: 2007
Источник: WEB
Производитель: Россия
Аудиокодек: FLAC
Тип рипа: Image+.CUE
Битрейт: lossless
Продолжительность: 00:38:19

Треклист:

1."С нами Бог" (Зиновьев)
2."Блажен муж" (Тредьяков)
3. "Отче наш" (Кедров)
4. "Господи, силою Твоею" (Бортнянский)
5."Царю Небесный" (Печенкин)
6."Псалом Асафу №81" (Панкратов)
7."Тя едину" (Чесноков)
8. "Взбранной воеводе" кондак (Алеманов)
9."Покаяния отверзи ми двери" (Чесноков)
10."Рождество Твоё, Христе Боже наш" тропарь (Дегтярев)
11."От юности моея" (Чесноков)
12. "Тебе поём" (Лабинский)
13."Придиите, поклонимся" из Всенощного Бдения (Рахманинов)
14."Мати Божия" (Чесноков)
Exact Audio Copy V1.0 beta 3 from 29. August 2011
Отчёт EAC об извлечении, выполненном 27. августа 2013, 18:23
BLAGOVEST / SPIRIT
Дисковод: TSSTcorpCDDVDW SH-222AB Adapter: 1 ID: 0
Режим чтения : Достоверность
Использование точного потока : Да
Отключение кэша аудио : Да
Использование указателей C2 : Нет
Коррекция смещения при чтении : 6
Способность читать области Lead-in и Lead-out : Нет
Заполнение пропущенных сэмплов тишиной : Да
Удаление блоков с тишиной в начале и конце : Нет
При вычислениях CRC использовались нулевые сэмплы : Да
Интерфейс : Встроенный Win32-интерфейс для Win NT/2000
Выходной формат : Пользовательский кодировщик
Выбранный битрейт : 320 kBit/s
Качество : Высокий
Добавление ID3-тега : Нет
Утилита сжатия : C:\Program Files (x86)\FLAC\flac.exe
Дополнительные параметры : -V -8 -T "Date=%year%" -T "Genre=%genre%" %source%
TOC извлечённого CD
Трек | Старт | Длительность | Начальный сектор | Конечный сектор
---------------------------------------------------------------------
1 | 0:00.00 | 4:55.62 | 0 | 22186
2 | 4:55.62 | 4:17.44 | 22187 | 41505
3 | 9:13.31 | 2:13.34 | 41506 | 51514
4 | 11:26.65 | 1:33.40 | 51515 | 58529
5 | 13:00.30 | 1:45.18 | 58530 | 66422
6 | 14:45.48 | 3:51.35 | 66423 | 83782
7 | 18:37.08 | 2:51.29 | 83783 | 96636
8 | 21:28.37 | 1:44.24 | 96637 | 104460
9 | 23:12.61 | 2:07.45 | 104461 | 114030
10 | 25:20.31 | 1:22.08 | 114031 | 120188
11 | 26:42.39 | 3:09.11 | 120189 | 134374
12 | 29:51.50 | 2:12.37 | 134375 | 144311
13 | 32:04.12 | 3:05.31 | 144312 | 158217
14 | 35:09.43 | 3:09.05 | 158218 | 172397
Характеристики диапазона извлечения и сообщения об ошибках
Выбранный диапазон
Имя файла C:\Users\1\Desktop\Благовест\BLAGOVEST - SPIRIT.wav
Пиковый уровень 97.9 %
Скорость извлечения 7.0 X
Качество диапазона 100.0 %
CRC теста 7C6A1EF7
CRC копии 7C6A1EF7
Копирование... OK
Ошибок не произошло
AccurateRip: сводка
Трек 1 : извлечено точно (доверие 1) [ADA6278B] (AR v1)
Трек 2 : извлечено точно (доверие 1) [C96486B1] (AR v1)
Трек 3 : извлечено точно (доверие 1) [3C791891] (AR v1)
Трек 4 : извлечено точно (доверие 1) [F7C4C68E] (AR v1)
Трек 5 : извлечено точно (доверие 1) [6D597EE5] (AR v1)
Трек 6 : извлечено точно (доверие 1) [C00413B6] (AR v1)
Трек 7 : извлечено точно (доверие 1) [689C82B1] (AR v1)
Трек 8 : извлечено точно (доверие 1) [4987087C] (AR v1)
Трек 9 : извлечено точно (доверие 1) [77AC0871] (AR v1)
Трек 10 : извлечено точно (доверие 1) [8E16043C] (AR v1)
Трек 11 : извлечено точно (доверие 1) [2A3F659A] (AR v1)
Трек 12 : извлечено точно (доверие 1) [1FF864AB] (AR v1)
Трек 13 : извлечено точно (доверие 1) [AFD6E177] (AR v1)
Трек 14 : извлечено точно (доверие 1) [34C8AFB0] (AR v1)
Все треки извлечены точно
Конец отчёта
REM GENRE Gospel
REM DATE 2009
REM DISCID CA08FA0E
REM COMMENT "ExactAudioCopy v1.0b3"
PERFORMER "BLAGOVEST"
TITLE "SPIRIT"
FILE "BLAGOVEST - SPIRIT.flac" WAVE
TRACK 01 AUDIO
TITLE "01 S Nami Bog"
PERFORMER "BLAGOVEST"
INDEX 01 00:00:00
TRACK 02 AUDIO
TITLE "02 Blajen Muj 2"
PERFORMER "BLAGOVEST"
INDEX 00 04:48:62
INDEX 01 04:55:62
TRACK 03 AUDIO
TITLE "03 Otche nash 2"
PERFORMER "BLAGOVEST"
INDEX 00 09:06:31
INDEX 01 09:13:31
TRACK 04 AUDIO
TITLE "04 Gospodi Silou Tvoei"
PERFORMER "BLAGOVEST"
INDEX 00 11:19:65
INDEX 01 11:26:65
TRACK 05 AUDIO
TITLE "05 Zary Nebesny"
PERFORMER "BLAGOVEST"
INDEX 00 12:53:30
INDEX 01 13:00:30
TRACK 06 AUDIO
TITLE "06 Psalom Isafu 2"
PERFORMER "BLAGOVEST"
INDEX 00 14:38:48
INDEX 01 14:45:48
TRACK 07 AUDIO
TITLE "07 Ta Edinu 2"
PERFORMER "BLAGOVEST"
INDEX 00 18:30:08
INDEX 01 18:37:08
TRACK 08 AUDIO
TITLE "08 Vzbranny Voevoda 2"
PERFORMER "BLAGOVEST"
INDEX 00 21:21:37
INDEX 01 21:28:37
TRACK 09 AUDIO
TITLE "09 Pokayania 2"
PERFORMER "BLAGOVEST"
INDEX 00 23:05:61
INDEX 01 23:12:61
TRACK 10 AUDIO
TITLE "10 Tropar' Rojdestvu 2"
PERFORMER "BLAGOVEST"
INDEX 00 25:13:31
INDEX 01 25:20:31
TRACK 11 AUDIO
TITLE "11 Ot Unosti 2"
PERFORMER "BLAGOVEST"
INDEX 00 26:35:39
INDEX 01 26:42:39
TRACK 12 AUDIO
TITLE "12 Tebe Poem (Labinsky) 2"
PERFORMER "BLAGOVEST"
INDEX 00 29:44:50
INDEX 01 29:51:50
TRACK 13 AUDIO
TITLE "13 Pridite Poklonimsa 2"
PERFORMER "BLAGOVEST"
INDEX 00 31:57:12
INDEX 01 32:04:12
TRACK 14 AUDIO
TITLE "14 Mati Bojia 2"
PERFORMER "BLAGOVEST"
INDEX 00 35:02:43
INDEX 01 35:09:43

Этот торрент недоступен для скачивания без регистрации, однако доступен по публичной magnet-ссылке (источники с публичных трекеров). Перед использованием ссылки прочтите, пожалуйста Пользовательское соглашение, а также как можно дольше оставайтесь на раздаче! Для того, чтобы скачать сам торрент-файл (который видит больше источников), а также для того, чтобы поблагодарить релизера, вам необходимо зарегистрироваться. Если регистрироваться лень - вы можете также попробовать скачать релиз по нашим партнерским ссылкам ниже. Кроме того, зарегистрированным пользователям не показывается всплывающая реклама при скачивании.

[underverse.me].t88051.torrent
Трекер: Зарегистрирован   [ 01.09.2017 10:41 ]  
Статус: проверено (by Evgenii82 at 02.09.2017 10:47)
Поблагодарили: 2 человека
Тип торрента: публичный - доступные источники с открытых трекеров: 
Размер: 166 MB (занимает 0.04 DVDR, для записи нужно 1 болванка DVDR/RW)
 
 

Яндекс.Метрика powered by Sphinx


В Н И М А Н И Е
Сайт не распространяет и не хранит электронные версии произведений, а лишь бесплатно и без коммерческой выгоды (не требуя взамен платы,
SMS и т.д.) предоставляет доступ к создаваемому пользователями каталогу ссылок на торрент-файлы, которые содержат только списки хеш-сумм.
Убедительная просьба с жалобами обращаться напрямую к пользователю, разместившему торрент файл.

Вверх