Loading...
Error

(Classical) Christopher Tye - Complete Consort Music - Phantasm (2017) [FLAC (Image+.CUE), lossless]

Статистика раздачи
Размер:  339 MB   |    Зарегистрирован:  4 года 6 месяцев   |    Скачан:  5 раз

Полного источника не было: 4 месяца 24 дня

Сидов:  0  |  0 KB/s  ]   Личеров:  0  |  0 KB/s  ]

* - сиды/пиры с внешних источников

   
 
Автор Сообщение

Darkferse Пол:Жен

18-Янв-2018 08:17

Christopher Tye - Complete Consort Music - Phantasm

Жанр: Classical
Год выпуска: 2017
Источник: CD
Производитель: Linn Records - CKD 571
Аудиокодек: FLAC
Тип рипа: Image+.CUE
Битрейт: lossless
Продолжительность: 01:01:18
Christopher Tye (c.1505-1575)

Complete Consort Music

[1] In nomine a4
[2] In nomine 'Trust'
[3] In nomine 'Rachel's weeping'
[4] Dum transisset Sabbatum I
[5] Laudes Deo
[6] In nomine 'Free from all'
[7] In nomine 'Round'
[8] In nomine 'Weep no more, Rachel'
[9] In nomine 'Say so'
[10] In nomine 'Follow me'
[11] Christus resurgens
[12] In nomine 'Cry'
[13] Rubum quem
[14] In nomine 'Hold fast'
[15] In nomine 'Seldom seen'
[16] In nomine 'Re la re'
[17] Dum transisset Sabbatum III
[18] Sit fast (prima et secunda pars)
[19] In nomine 'Surrexit non est hic'
[20] In nomine 'Believe me'
[21] In nomine 'Report'
[22] In nomine a5
[23] In nomine 'I come'
[24] Dum transisset Sabbatum II
[25] O lux beata Trinitas
[26] In nomine 'My death bed'
[27] In nomine 'Blameless'
[28] In nomine 'Farewell my good one forever'
[29] Dum transisset Sabbatum IV
[30] Amavit eum Dominus
[31] In nomine a6
Phantasm
Laurence Dreyfus treble viol and director
Emilia Benjamin treble and tenor viols
Jonathan Manson tenor viol
Mikko Perkola bass viol
Markku Luolajan-Mikkola bass viol

Код:

Exact Audio Copy V1.3 from 2. September 2016

EAC extraction logfile from 9. January 2018, 21:54

Phantasm / Tye - Complete Consort Music

Used drive  : PLDS    DVD-RW DU8A6SH   Adapter: 1  ID: 0

Read mode               : Secure
Utilize accurate stream : Yes
Defeat audio cache      : Yes
Make use of C2 pointers : No

Read offset correction                      : 6
Overread into Lead-In and Lead-Out          : No
Fill up missing offset samples with silence : Yes
Delete leading and trailing silent blocks   : No
Null samples used in CRC calculations       : Yes
Used interface                              : Native Win32 interface for Win NT & 2000

Used output format              : User Defined Encoder
Selected bitrate                : 128 kBit/s
Quality                         : High
Add ID3 tag                     : No
Command line compressor         : C:\Program Files (x86)\Exact Audio Copy\Flac\flac.exe
Additional command line options : -V -8 -T "Date=%year%" -T "Genre=%genre%" %source%

TOC of the extracted CD

     Track |   Start  |  Length  | Start sector | End sector
    ---------------------------------------------------------
        1  |  0:00.00 |  2:06.29 |         0    |     9478
        2  |  2:06.29 |  1:46.39 |      9479    |    17467
        3  |  3:52.68 |  2:25.23 |     17468    |    28365
        4  |  6:18.16 |  2:51.38 |     28366    |    41228
        5  |  9:09.54 |  1:23.28 |     41229    |    47481
        6  | 10:33.07 |  1:26.36 |     47482    |    53967
        7  | 11:59.43 |  1:53.21 |     53968    |    62463
        8  | 13:52.64 |  2:01.50 |     62464    |    71588
        9  | 15:54.39 |  1:04.71 |     71589    |    76459
       10  | 16:59.35 |  1:45.13 |     76460    |    84347
       11  | 18:44.48 |  2:12.64 |     84348    |    94311
       12  | 20:57.37 |  1:36.45 |     94312    |   101556
       13  | 22:34.07 |  1:09.62 |    101557    |   106793
       14  | 23:43.69 |  1:08.50 |    106794    |   111943
       15  | 24:52.44 |  1:42.09 |    111944    |   119602
       16  | 26:34.53 |  1:16.11 |    119603    |   125313
       17  | 27:50.64 |  4:12.54 |    125314    |   144267
       18  | 32:03.43 |  6:13.74 |    144268    |   172316
       19  | 38:17.42 |  1:59.60 |    172317    |   181301
       20  | 40:17.27 |  1:22.23 |    181302    |   187474
       21  | 41:39.50 |  1:37.08 |    187475    |   194757
       22  | 43:16.58 |  1:53.22 |    194758    |   203254
       23  | 45:10.05 |  2:11.28 |    203255    |   213107
       24  | 47:21.33 |  4:18.39 |    213108    |   232496
       25  | 51:39.72 |  2:41.65 |    232497    |   244636
       26  | 54:21.62 |  1:42.72 |    244637    |   252358
       27  | 56:04.59 |  2:12.32 |    252359    |   262290
       28  | 58:17.16 |  1:08.72 |    262291    |   267462
       29  | 59:26.13 |  3:03.16 |    267463    |   281203
       30  | 62:29.29 |  2:34.39 |    281204    |   292792
       31  | 65:03.68 |  2:14.07 |    292793    |   302849

Range status and errors

Selected range

     Filename C:\temp\Tye - Complete Consort Music - Phantasm\Tye - Complete Consort Music.wav

     Peak level 89.7 %
     Extraction speed 3.8 X
     Range quality 100.0 %
     Test CRC A8947F80
     Copy CRC A8947F80
     Copy OK

No errors occurred

AccurateRip summary

Track  1  accurately ripped (confidence 1)  [5D115171]  (AR v2)
Track  2  accurately ripped (confidence 1)  [22C940E0]  (AR v2)
Track  3  accurately ripped (confidence 1)  [C57F56E2]  (AR v2)
Track  4  accurately ripped (confidence 1)  [503227AB]  (AR v2)
Track  5  accurately ripped (confidence 1)  [6D8D0C5E]  (AR v2)
Track  6  accurately ripped (confidence 1)  [4675CFEA]  (AR v2)
Track  7  accurately ripped (confidence 1)  [64E3ED15]  (AR v2)
Track  8  accurately ripped (confidence 1)  [9A64A019]  (AR v2)
Track  9  accurately ripped (confidence 1)  [B587E6BD]  (AR v2)
Track 10  accurately ripped (confidence 1)  [3514C82F]  (AR v2)
Track 11  accurately ripped (confidence 1)  [BA88D272]  (AR v2)
Track 12  accurately ripped (confidence 1)  [E1A295BC]  (AR v2)
Track 13  accurately ripped (confidence 1)  [EF5DD0C4]  (AR v2)
Track 14  accurately ripped (confidence 1)  [B2BF9606]  (AR v2)
Track 15  accurately ripped (confidence 1)  [1B71C716]  (AR v2)
Track 16  accurately ripped (confidence 1)  [45987B1A]  (AR v2)
Track 17  accurately ripped (confidence 1)  [422B22F0]  (AR v2)
Track 18  accurately ripped (confidence 1)  [3618FBF7]  (AR v2)
Track 19  accurately ripped (confidence 1)  [5A436D61]  (AR v2)
Track 20  accurately ripped (confidence 1)  [172327A1]  (AR v2)
Track 21  accurately ripped (confidence 1)  [6460F6A0]  (AR v2)
Track 22  accurately ripped (confidence 1)  [ECB9AEF9]  (AR v2)
Track 23  accurately ripped (confidence 1)  [D2A119BB]  (AR v2)
Track 24  accurately ripped (confidence 1)  [D82CF393]  (AR v2)
Track 25  accurately ripped (confidence 1)  [26DC62E8]  (AR v2)
Track 26  accurately ripped (confidence 1)  [73DF9D95]  (AR v2)
Track 27  accurately ripped (confidence 1)  [56FD9E0A]  (AR v2)
Track 28  accurately ripped (confidence 1)  [08384BA4]  (AR v2)
Track 29  accurately ripped (confidence 1)  [FAA759F2]  (AR v2)
Track 30  accurately ripped (confidence 1)  [951F681B]  (AR v2)
Track 31  accurately ripped (confidence 1)  [77931188]  (AR v2)

All tracks accurately ripped

End of status report

==== Log checksum AC35B084453A59DD2982830B917D39586861B9289C8842104F9B7BCA43F62B04 ====

Код:

REM GENRE Classical
REM DATE 2017
REM DISCID C20FC61F
REM COMMENT "ExactAudioCopy v1.3"
PERFORMER "Phantasm"
TITLE "Tye - Complete Consort Music"
REM COMPOSER "Christopher Tye"
FILE "Tye - Complete Consort Music.flac" WAVE
  TRACK 01 AUDIO
    TITLE "In nomine a4"
    PERFORMER "Phantasm"
    REM COMPOSER "Christopher Tye"
    INDEX 01 00:00:00
  TRACK 02 AUDIO
    TITLE "In nomine 'Trust'"
    PERFORMER "Phantasm"
    REM COMPOSER "Christopher Tye"
    INDEX 01 02:06:29
  TRACK 03 AUDIO
    TITLE "In nomine 'Rachel's weeping'"
    PERFORMER "Phantasm"
    REM COMPOSER "Christopher Tye"
    INDEX 01 03:52:68
  TRACK 04 AUDIO
    TITLE "Dum transisset Sabbatum I"
    PERFORMER "Phantasm"
    REM COMPOSER "Christopher Tye"
    INDEX 01 06:18:16
  TRACK 05 AUDIO
    TITLE "Laudes Deo"
    PERFORMER "Phantasm"
    REM COMPOSER "Christopher Tye"
    INDEX 01 09:09:54
  TRACK 06 AUDIO
    TITLE "In nomine 'Free from all'"
    PERFORMER "Phantasm"
    REM COMPOSER "Christopher Tye"
    INDEX 01 10:33:07
  TRACK 07 AUDIO
    TITLE "In nomine 'Round'"
    PERFORMER "Phantasm"
    REM COMPOSER "Christopher Tye"
    INDEX 01 11:59:43
  TRACK 08 AUDIO
    TITLE "In nomine 'Weep no more, Rachel'"
    PERFORMER "Phantasm"
    REM COMPOSER "Christopher Tye"
    INDEX 01 13:52:64
  TRACK 09 AUDIO
    TITLE "In nomine 'Say so'"
    PERFORMER "Phantasm"
    REM COMPOSER "Christopher Tye"
    INDEX 01 15:54:39
  TRACK 10 AUDIO
    TITLE "In nomine 'Follow me'"
    PERFORMER "Phantasm"
    REM COMPOSER "Christopher Tye"
    INDEX 01 16:59:35
  TRACK 11 AUDIO
    TITLE "Christus resurgens"
    PERFORMER "Phantasm"
    REM COMPOSER "Christopher Tye"
    INDEX 01 18:44:48
  TRACK 12 AUDIO
    TITLE "In nomine 'Cry'"
    PERFORMER "Phantasm"
    REM COMPOSER "Christopher Tye"
    INDEX 01 20:57:37
  TRACK 13 AUDIO
    TITLE "Rubum quem"
    PERFORMER "Phantasm"
    REM COMPOSER "Christopher Tye"
    INDEX 01 22:34:07
  TRACK 14 AUDIO
    TITLE "In nomine 'Hold fast'"
    PERFORMER "Phantasm"
    REM COMPOSER "Christopher Tye"
    INDEX 01 23:43:69
  TRACK 15 AUDIO
    TITLE "In nomine 'Seldom seen'"
    PERFORMER "Phantasm"
    REM COMPOSER "Christopher Tye"
    INDEX 01 24:52:44
  TRACK 16 AUDIO
    TITLE "In nomine 'Re la re'"
    PERFORMER "Phantasm"
    REM COMPOSER "Christopher Tye"
    INDEX 01 26:34:53
  TRACK 17 AUDIO
    TITLE "Dum transisset Sabbatum III"
    PERFORMER "Phantasm"
    REM COMPOSER "Christopher Tye"
    INDEX 01 27:50:64
  TRACK 18 AUDIO
    TITLE "Sit fast (prima et secunda pars)"
    PERFORMER "Phantasm"
    REM COMPOSER "Christopher Tye"
    INDEX 01 32:03:43
  TRACK 19 AUDIO
    TITLE "In nomine 'Surrexit non est hic'"
    PERFORMER "Phantasm"
    REM COMPOSER "Christopher Tye"
    INDEX 01 38:17:42
  TRACK 20 AUDIO
    TITLE "In nomine 'Believe me'"
    PERFORMER "Phantasm"
    REM COMPOSER "Christopher Tye"
    INDEX 01 40:17:27
  TRACK 21 AUDIO
    TITLE "In nomine 'Report'"
    PERFORMER "Phantasm"
    REM COMPOSER "Christopher Tye"
    INDEX 01 41:39:50
  TRACK 22 AUDIO
    TITLE "In nomine a5"
    PERFORMER "Phantasm"
    REM COMPOSER "Christopher Tye"
    INDEX 01 43:16:58
  TRACK 23 AUDIO
    TITLE "In nomine 'I come'"
    PERFORMER "Phantasm"
    REM COMPOSER "Christopher Tye"
    INDEX 01 45:10:05
  TRACK 24 AUDIO
    TITLE "Dum transisset Sabbatum II"
    PERFORMER "Phantasm"
    REM COMPOSER "Christopher Tye"
    INDEX 01 47:21:33
  TRACK 25 AUDIO
    TITLE "O lux beata Trinitas"
    PERFORMER "Phantasm"
    REM COMPOSER "Christopher Tye"
    INDEX 01 51:39:72
  TRACK 26 AUDIO
    TITLE "In nomine 'My death bed'"
    PERFORMER "Phantasm"
    REM COMPOSER "Christopher Tye"
    INDEX 01 54:21:62
  TRACK 27 AUDIO
    TITLE "In nomine 'Blameless'"
    PERFORMER "Phantasm"
    REM COMPOSER "Christopher Tye"
    INDEX 01 56:04:59
  TRACK 28 AUDIO
    TITLE "In nomine 'Farewell my good one forever'"
    PERFORMER "Phantasm"
    REM COMPOSER "Christopher Tye"
    INDEX 01 58:17:16
  TRACK 29 AUDIO
    TITLE "Dum transisset Sabbatum IV"
    PERFORMER "Phantasm"
    REM COMPOSER "Christopher Tye"
    INDEX 01 59:26:13
  TRACK 30 AUDIO
    TITLE "Amavit eum Dominus"
    PERFORMER "Phantasm"
    REM COMPOSER "Christopher Tye"
    INDEX 01 62:29:29
  TRACK 31 AUDIO
    TITLE "In nomine a6"
    PERFORMER "Phantasm"
    REM COMPOSER "Christopher Tye"
    INDEX 01 65:03:68

Этот торрент недоступен для скачивания без регистрации, однако доступен по публичной magnet-ссылке (источники с публичных трекеров). Перед использованием ссылки прочтите, пожалуйста Пользовательское соглашение, а также как можно дольше оставайтесь на раздаче! Для того, чтобы скачать сам торрент-файл (который видит больше источников), а также для того, чтобы поблагодарить релизера, вам необходимо зарегистрироваться. Если регистрироваться лень - вы можете также попробовать скачать релиз по нашим партнерским ссылкам ниже. Кроме того, зарегистрированным пользователям не показывается всплывающая реклама при скачивании.

[underverse.me].t94960.torrent
Трекер: Зарегистрирован   [ 18.01.2018 08:17 ]  
Статус: проверено (by Darkferse at 18.01.2018 08:20)
Поблагодарили: пока никто не поблагодарил...
Тип торрента: публичный - доступные источники с открытых трекеров: 
Размер: 339 MB (занимает 0.08 DVDR, для записи нужно 1 болванка DVDR/RW)
 
 

Яндекс.Метрика powered by Sphinx


В Н И М А Н И Е
Сайт не распространяет и не хранит электронные версии произведений, а лишь бесплатно и без коммерческой выгоды (не требуя взамен платы,
SMS и т.д.) предоставляет доступ к создаваемому пользователями каталогу ссылок на торрент-файлы, которые содержат только списки хеш-сумм.
Убедительная просьба с жалобами обращаться напрямую к пользователю, разместившему торрент файл.

Вверх